<?xml version="1.0" standalone="no"?>
<!DOCTYPE svg PUBLIC "-//W3C//DTD SVG 1.1//EN" "http://www.w3.org/Graphics/SVG/1.1/DTD/svg11.dtd" >
<svg xmlns="http://www.w3.org/2000/svg">
<metadata></metadata>
<defs>
<font id="Museo700Regular" horiz-adv-x="1267" >
<font-face units-per-em="2048" ascent="1536" descent="-512" />
<missing-glyph horiz-adv-x="542" />
<glyph unicode="&#xfb01;" horiz-adv-x="1298" d="M41 838v206h129v31q0 98 30.5 171t76 113t107.5 65q97 38 212 38l88 -6v-221q-25 4 -59 4q-195 0 -195 -174v-21h555q139 0 139 -139v-641q0 -45 45 -45h80v-219h-245q-74 0 -107 33t-33 106v654q0 45 -45 45h-389v-838h-260v838h-129zM877 1214v240h225v-240h-225z" />
<glyph unicode="&#xfb02;" horiz-adv-x="1282" d="M41 838v206h129v31q0 98 31.5 171t76 111t106.5 61q94 36 212 36h375q139 0 139 -139v-1051q0 -45 45 -45h80v-219h-246q-74 0 -106.5 33t-32.5 106v1049q0 45 -45 45h-174q-201 0 -201 -164v-25h223v-206h-223v-838h-260v838h-129z" />
<glyph unicode="&#xfb03;" horiz-adv-x="1986" d="M41 838v206h129v31q0 98 30.5 171t76 113t107.5 65q97 38 212 38l88 -6v-221q-25 4 -59 4q-195 0 -195 -176v-19h426v31q0 98 31 171t76 113t107 65q99 38 214 38l86 -6v-221q-25 4 -57 4q-197 0 -197 -176v-19h555q74 0 106.5 -33.5t32.5 -105.5v-641q0 -45 45 -45h82 v-219h-247q-74 0 -107 33t-33 106v654q0 45 -45 45h-389v-838h-260v838h-426v-838h-260v838h-129zM1563 1214v240h225v-240h-225z" />
<glyph unicode="&#xfb04;" horiz-adv-x="1970" d="M41 838v206h129v33q0 96 30.5 170t74.5 114t105 63q99 38 214 38l90 -6v-221q-25 4 -57 4q-197 0 -197 -174v-21h428v31q0 98 32 171t76 111t106 61q95 36 212 36h375q139 0 139 -139v-1051q0 -45 45 -45h80v-219h-246q-74 0 -106.5 33t-32.5 106v1049q0 45 -45 45h-174 q-201 0 -201 -164v-25h223v-206h-223v-838h-260v838h-428v-838h-260v838h-129z" />
<glyph horiz-adv-x="0" />
<glyph horiz-adv-x="2048" />
<glyph unicode="&#xd;" horiz-adv-x="681" />
<glyph unicode=" "  horiz-adv-x="542" />
<glyph unicode="&#x09;" horiz-adv-x="542" />
<glyph unicode="&#xa0;" horiz-adv-x="542" />
<glyph unicode="!" horiz-adv-x="679" d="M205 1454h270l-20 -1034h-228zM215 0v242h252v-242h-252z" />
<glyph unicode="&#x22;" horiz-adv-x="755" d="M117 1053v428h192v-428h-192zM444 1053v428h193v-428h-193z" />
<glyph unicode="#" horiz-adv-x="1433" d="M66 383l30 186h244l51 287h-239l30 188h242l72 410h209l-72 -410h278l72 410h209l-72 -410h248l-33 -188h-245l-52 -287h244l-31 -186h-245l-66 -383h-209l68 383h-281l-65 -383h-209l65 383h-243zM549 569h280l52 287h-281z" />
<glyph unicode="$" horiz-adv-x="1146" d="M78 268l186 156q13 -26 50.5 -67.5t73.5 -68t93.5 -49t133 -22.5t134 46t58.5 111.5t-38 107.5t-98.5 74t-133 63.5t-145.5 72.5t-133 92q-136 114 -136 299q0 152 107.5 256.5t277.5 130.5v191h182v-191q137 -18 238.5 -87.5t101.5 -190.5v-135h-242v65q0 49 -54 81 t-137 32t-143.5 -42t-60.5 -109t71 -119t171 -93t200.5 -92t171 -148t70.5 -243t-106.5 -262.5t-280.5 -142.5v-191h-182v189q-84 12 -159 45.5t-122 73.5q-99 84 -133 141z" />
<glyph unicode="%" horiz-adv-x="1689" d="M113 1154q0 134 98 229.5t235.5 95.5t236.5 -95.5t99 -229.5t-98 -228.5t-237.5 -94.5t-236.5 94.5t-97 228.5zM164 0l1116 1454h240l-1117 -1454h-239zM311 1154q0 -56 39 -95t96.5 -39t97.5 39t40 95t-40 96t-97.5 40t-96.5 -40t-39 -96zM907 297q0 133 97.5 228.5 t235.5 95.5t236.5 -95.5t98.5 -228.5t-97.5 -227.5t-236.5 -94.5t-236.5 94.5t-97.5 227.5zM1106 298q0 -56 39 -95t96 -39t97 39t40 95t-40 96t-97 40t-96 -40t-39 -96z" />
<glyph unicode="&#x26;" horiz-adv-x="1333" d="M86 426q0 113 64.5 214t177.5 134v4q-15 4 -53.5 36t-62.5 63.5t-43 90t-19 128.5q0 172 124.5 277.5t317.5 105.5q97 0 176 -19l25 -6l-64 -209q-51 12 -98 12q-96 0 -155.5 -55t-59.5 -135t51 -138.5t170 -58.5h219v174h260v-174h174v-229h-174v-172 q0 -225 -136 -359.5t-368.5 -134.5t-379 129t-146.5 322zM356 436q0 -96 69 -157.5t184.5 -61.5t181 67.5t65.5 198.5v158h-219q-131 0 -206 -54.5t-75 -150.5z" />
<glyph unicode="'" horiz-adv-x="430" d="M117 1053v428h196v-428h-196z" />
<glyph unicode="(" horiz-adv-x="718" d="M166 663q0 497 240 855h221q-229 -383 -229.5 -842t235.5 -871h-221q-246 361 -246 858z" />
<glyph unicode=")" horiz-adv-x="718" d="M86 -195q236 412 236 871t-230 842h221q242 -360 242 -856t-246 -857h-223z" />
<glyph unicode="*" horiz-adv-x="989" d="M76 1065l69 221l248 -100l-18 268h235l-18 -268l248 100l73 -219l-262 -66v-4l172 -202l-186 -138l-141 226h-4l-142 -226l-186 136l170 204v4z" />
<glyph unicode="+" d="M86 483v203h442v485h211v-485h443v-203h-443v-483h-211v483h-442z" />
<glyph unicode="," horiz-adv-x="542" d="M45 -215l137 479h250l-196 -479h-191z" />
<glyph unicode="-" horiz-adv-x="882" d="M133 471v227h617v-227h-617z" />
<glyph unicode="." horiz-adv-x="542" d="M145 0v260h252v-260h-252z" />
<glyph unicode="/" horiz-adv-x="751" d="M-2 -86l520 1614h223l-522 -1614h-221z" />
<glyph unicode="0" horiz-adv-x="1253" d="M100 729q0 750 526.5 750t526.5 -750q0 -326 -113 -533q-59 -106 -164.5 -163.5t-249 -57.5t-249 57.5t-163.5 163.5q-114 210 -114 533zM371 726q0 -509 256 -509t256 509t-256 509t-256 -509z" />
<glyph unicode="1" horiz-adv-x="1091" d="M106 1104l365 350h242v-1227h313v-227h-895v227h313v807l2 99h-4q-16 -35 -63 -82l-117 -111z" />
<glyph unicode="2" horiz-adv-x="1189" d="M68 191.5q0 107.5 38.5 194.5t101 144.5t138.5 105.5t152.5 90t139.5 86q140 99 140 232q0 86 -58 137.5t-146.5 51.5t-142.5 -36t-54 -79v-63h-242v143q0 90 73 156q137 125 353 125t352 -117t136 -313q0 -137 -73 -244t-176.5 -171.5t-205.5 -118.5t-175 -116.5 t-73 -134.5q0 -37 55 -37h426q45 0 45 45v88h242v-221q0 -74 -32.5 -106.5t-106.5 -32.5h-758q-92 0 -120.5 42t-28.5 149.5z" />
<glyph unicode="3" horiz-adv-x="1138" d="M53 180l135 201l16 -17q87 -86 221 -122q60 -17 120 -17q109 0 178.5 61.5t69.5 156.5t-78 153.5t-197 58.5h-102l-54 133l246 330q51 73 84 99l13 12v4q-45 -6 -130 -6h-182q-45 0 -45 -45v-88h-242v221q0 74 28 106.5t99 32.5h791v-166l-334 -418q158 -25 266.5 -136 t108.5 -296t-140.5 -324t-377.5 -139q-217 0 -410 133q-43 29 -63 52z" />
<glyph unicode="4" horiz-adv-x="1206" d="M37 367v170l602 917h315v-860h224v-227h-224v-367h-268v367h-649zM317 588q59 6 127 6h246v403l10 158h-4q-41 -78 -78 -131l-227 -336l-74 -96v-4z" />
<glyph unicode="5" horiz-adv-x="1218" d="M96 176l135 203q10 -15 50.5 -47.5t76.5 -53.5q96 -53 213 -53t191 70t74 179.5t-91.5 175t-222.5 65.5q-72 0 -140.5 -16.5t-100.5 -32.5l-33 -17l-94 47l53 619q6 74 36.5 106.5t100.5 32.5h537q139 0 139 -139v-221h-244v88q0 45 -45 45h-239q-41 0 -46 -45l-18 -201 l-10 -68h4q68 27 153 27q244 0 388.5 -136t144.5 -339t-146.5 -347.5t-392.5 -144.5q-172 0 -299 71q-114 64 -155 112z" />
<glyph unicode="6" horiz-adv-x="1177" d="M68 651q0 250 106 458q117 230 320 321q112 49 218 49q179 0 292 -45l32 -17l-78 -227q-94 45 -204 45q-160 0 -258.5 -113.5t-126.5 -281.5h4q37 47 113.5 76.5t156.5 29.5q209 0 337 -140t128 -345t-133 -345.5t-357.5 -140.5t-387 182.5t-162.5 493.5zM344 571 q0 -137 86 -245.5t192.5 -108.5t166 69.5t59.5 180.5t-70.5 186.5t-182 75.5t-181.5 -46t-70 -112z" />
<glyph unicode="7" horiz-adv-x="1101" d="M45 1094v221q0 74 28.5 106.5t98.5 32.5h909v-184l-692 -1270h-293l600 1094q51 91 78 118l10 15v4q-27 -4 -100 -4h-350q-45 0 -45 -45v-88h-244z" />
<glyph unicode="8" horiz-adv-x="1193" d="M74 404.5q0 179.5 144 315.5q34 32 56 46l23 16v4q-6 4 -17.5 11.5t-39 34t-48.5 58.5q-57 84 -57 187q0 164 126 283t338 119t341 -115t129 -289q0 -149 -101 -273q-24 -28 -40 -42l-17 -15v-4q201 -127 201 -333q0 -174 -144.5 -303.5t-369.5 -129.5t-374.5 125 t-149.5 304.5zM344 431q0 -93 71.5 -153.5t176 -60.5t177.5 57.5t73 136.5t-52.5 123t-160 90t-127.5 46q-43 0 -100.5 -73t-57.5 -166zM395 1071q0 -70 50.5 -111.5t135.5 -75.5t114.5 -34t72.5 65.5t43 144.5t-57.5 127t-152.5 48t-150.5 -47t-55.5 -117z" />
<glyph unicode="9" horiz-adv-x="1177" d="M68 992q0 204 133 345.5t357.5 141.5t387 -182.5t162.5 -493.5q0 -251 -106 -457q-56 -108 -132.5 -190t-188.5 -131.5t-219 -49.5q-178 0 -290 45l-33 17l78 227q94 -47 205 -47q160 0 258 113.5t127 283.5h-4q-35 -47 -113 -76.5t-158 -29.5q-209 0 -336.5 140 t-127.5 344zM328 987q0 -111 70.5 -186.5t182 -75.5t181 45t69.5 113q0 137 -86 244.5t-192 107.5t-165.5 -68.5t-59.5 -179.5z" />
<glyph unicode=":" horiz-adv-x="626" d="M188 0v260h250v-260h-250zM188 784v260h250v-260h-250z" />
<glyph unicode=";" horiz-adv-x="626" d="M72 -215l112 479h248l-168 -479h-192zM190 784v260h250v-260h-250z" />
<glyph unicode="&#x3c;" d="M131 502v168l985 438v-227l-710 -293v-4l710 -293v-228z" />
<glyph unicode="=" d="M135 274v201h1000v-201h-1000zM135 694v201h1000v-201h-1000z" />
<glyph unicode="&#x3e;" d="M145 63v228l711 293v4l-711 293v227l985 -438v-168z" />
<glyph unicode="?" horiz-adv-x="974" d="M74 1335q16 16 46 41t130 66t209 41q182 0 314 -105.5t132 -279.5q0 -94 -37 -170t-89 -125t-104 -93q-126 -107 -126 -210v-80h-252v98q0 82 35 150.5t85 114.5t99 88q119 102 119 202q0 72 -57.5 121t-125 49t-123 -21.5t-83.5 -41.5l-29 -23zM297 0v242h252v-242h-252 z" />
<glyph unicode="@" horiz-adv-x="1607" d="M78 490.5q0 320.5 222 542.5t531.5 222t444.5 -124.5t135 -321.5v-512h150v-186h-568q-199 0 -319.5 112.5t-120.5 267.5t120 265t320 110h174q-2 80 -90 130.5t-221 50.5q-219 0 -370.5 -166t-151.5 -393t152.5 -386t402.5 -159v-203q-360 0 -585.5 215t-225.5 535.5z M811 498q0 -84 55.5 -142.5t143.5 -58.5h157v401h-153q-90 0 -146.5 -58t-56.5 -142z" />
<glyph unicode="A" horiz-adv-x="1380" d="M23 0v227h32q49 0 64 45l432 1182h280l431 -1182q14 -45 63 -45h33v-227h-160q-76 0 -111.5 24.5t-60.5 94.5l-90 254h-492l-90 -254q-25 -70 -59.5 -94.5t-110.5 -24.5h-161zM506 594h368l-124 364l-58 218h-4q-31 -137 -57 -218z" />
<glyph unicode="B" horiz-adv-x="1288" d="M68 1227v227h628q201 0 326 -99.5t125 -275.5q0 -113 -51.5 -192.5t-124.5 -118.5v-4q113 -33 173 -129t60 -213q0 -207 -142 -314.5t-360 -107.5h-362q-72 0 -105.5 32.5t-33.5 106.5v1088h-133zM469 272q0 -45 45 -45h209q96 0 150.5 58.5t54.5 151.5t-55.5 151.5 t-149.5 58.5h-254v-375zM469 860h229q82 0 129 52.5t47 134t-47 131t-133 49.5h-225v-367z" />
<glyph unicode="C" horiz-adv-x="1452" d="M61 732.5q0 321.5 211 534t527 212.5q164 0 344 -70q90 -35 148.5 -101.5t58.5 -154.5v-162h-244v82q0 74 -95.5 115t-205.5 41q-201 0 -333 -133t-132 -351.5t137 -369t336 -150.5q155 0 273 68q105 60 149 104l18 21l142 -193q-25 -31 -90.5 -80t-128 -82.5t-163 -60.5 t-204.5 -27q-330 0 -539 218t-209 539.5z" />
<glyph unicode="D" horiz-adv-x="1464" d="M70 1227v227h592q340 0 540.5 -192.5t200.5 -532.5t-201 -534.5t-540 -194.5h-320q-74 0 -106.5 32.5t-32.5 106.5v1088h-133zM471 272q0 -45 45 -45h131q221 0 349 130t128 370t-129 370t-348 130h-176v-955z" />
<glyph unicode="E" horiz-adv-x="1183" d="M70 1227v227h878q139 0 139 -139v-221h-243v88q0 45 -45 45h-328v-381h471v-228h-471v-346q0 -45 45 -45h336q45 0 45 45v88h244v-221q0 -74 -34 -106.5t-106 -32.5h-659q-74 0 -106.5 32.5t-32.5 106.5v1088h-133z" />
<glyph unicode="F" horiz-adv-x="1077" d="M70 1227v227h829q74 0 106.5 -34t32.5 -105v-221h-241v88q0 45 -45 45h-281v-412h465v-227h-465v-588h-268v1227h-133z" />
<glyph unicode="G" horiz-adv-x="1519" d="M63 721.5q0 328.5 212 543t528 214.5q247 0 445 -119q44 -27 65 -45l20 -21l-151 -192q-54 48 -164.5 88.5t-208.5 40.5q-195 0 -331 -138.5t-136 -362.5t138 -364.5t339 -140.5q102 0 194.5 38t133.5 77l41 37v108q0 45 -45 45h-88v228h235q74 0 107 -33t33 -104v-621 h-230v70l2 61h-4q-19 -19 -67 -50.5t-94 -52.5q-120 -53 -267 -53q-295 0 -501 209t-206 537.5z" />
<glyph unicode="H" horiz-adv-x="1583" d="M70 1227v227h262q74 0 106.5 -34t32.5 -105v-477h641v477q0 139 139 139h262v-227h-88q-45 0 -45 -45v-1182h-268v610h-641v-610h-268v1182q0 45 -45 45h-88z" />
<glyph unicode="I" horiz-adv-x="700" d="M78 0v227h145v1000h-145v227h545v-227h-146v-1000h146v-227h-545z" />
<glyph unicode="J" horiz-adv-x="1103" d="M41 430v84h268v-59q0 -121 54.5 -175.5t136.5 -54.5t135 53.5t53 163.5v740q0 45 -45 45h-352v227h526q139 0 139 -139v-885q0 -223 -135 -339t-322 -116t-322.5 117t-135.5 338z" />
<glyph unicode="K" horiz-adv-x="1298" d="M70 1227v227h262q74 0 106.5 -34t32.5 -105v-453h102q90 0 117 47l293 545h295l-328 -598q-40 -75 -78 -98l-14 -8v-5q49 -12 94 -100l185 -371q23 -47 102 -47h39v-227h-154q-86 0 -127 20.5t-75 88.5l-238 477q-16 33 -45 41t-82 8h-86v-635h-268v1182q0 45 -45 45h-88 z" />
<glyph unicode="L" horiz-adv-x="1142" d="M70 1227v227h262q74 0 106.5 -34t32.5 -105v-1043q0 -45 45 -45h318q45 0 45 45v88h243v-221q0 -74 -32.5 -106.5t-106.5 -32.5h-641q-74 0 -106.5 32.5t-32.5 106.5v1043q0 45 -45 45h-88z" />
<glyph unicode="M" horiz-adv-x="1781" d="M37 0v227h63q41 0 45 45l95 1182h278l299 -692l72 -195h4q37 111 72 195l299 692h278l94 -1182q4 -45 45 -45h64v-227h-232q-72 0 -101.5 31.5t-35.5 107.5l-49 647q-4 43 -4 100v91l2 35h-4q-43 -143 -80 -226l-242 -536h-217l-241 536q-41 95 -70 189l-10 39h-4 q3 -56 3 -106q0 -67 -5 -122l-47 -647q-6 -76 -37 -107.5t-103 -31.5h-231z" />
<glyph unicode="N" horiz-adv-x="1576" d="M70 0v227h88q45 0 45 45v1182h241l551 -805q61 -90 103 -172l18 -33h4q-14 121 -14 205v666q0 72 32.5 105.5t106.5 33.5h262v-227h-88q-45 0 -45 -45v-1182h-239l-553 803q-61 90 -103 172l-18 33h-4q14 -121 14 -205v-664q0 -74 -32.5 -106.5t-106.5 -32.5h-262z" />
<glyph unicode="O" horiz-adv-x="1626" d="M61 732.5q0 317.5 216.5 532t536 214.5t535.5 -214t216 -532t-216 -538t-535.5 -220t-536 220t-216.5 537.5zM340 732q0 -212 137 -359.5t336 -147.5t336 147.5t137 359.5t-137 354.5t-336 142.5t-336 -142.5t-137 -354.5z" />
<glyph unicode="P" horiz-adv-x="1239" d="M70 1227v227h665q205 0 334 -131t129 -342t-129 -345t-334 -134h-264v-502h-268v1227h-133zM471 731h215q113 0 175.5 67.5t62.5 181.5t-61.5 180.5t-172.5 66.5h-219v-496z" />
<glyph unicode="Q" horiz-adv-x="1626" d="M61 732q0 316 215.5 530.5t536 214.5t536.5 -214t216 -528q0 -248 -160 -459l158 -143l-160 -174l-158 156q-182 -139 -434 -140q-317 0 -533.5 220.5t-216.5 536.5zM340 732q0 -212 137 -359.5t334 -147.5q68 0 128 17.5t85 36.5l27 16l-148 137l158 174l147 -147 q78 123 78 276q0 209 -137 350.5t-337 141.5t-336 -141.5t-136 -353.5z" />
<glyph unicode="R" horiz-adv-x="1294" d="M70 1227v227h651q203 0 328 -117.5t125 -320.5q0 -92 -29 -168t-71 -119q-80 -82 -142 -96v-4q45 -20 72 -74l141 -281q25 -47 102 -47h27v-227h-141q-84 0 -126 20.5t-77 88.5l-187 366q-23 41 -50 54.5t-87 13.5h-135v-543h-268v1227h-133zM471 772h213 q102 0 158.5 60.5t56.5 167.5t-56.5 167t-154.5 60h-217v-455z" />
<glyph unicode="S" horiz-adv-x="1124" d="M66 201l151 188q172 -172 352 -172q88 0 148.5 46t60.5 126q0 92 -136 165q-60 32 -133 63.5t-145.5 72.5t-133 89t-98.5 123t-38 167q0 176 137.5 293t348.5 117q223 0 357 -123q75 -68 75 -164v-135h-242v65q0 49 -58.5 81t-142 32t-144 -43t-60.5 -102.5t37.5 -99.5 t98 -69.5t133.5 -60.5t145.5 -69.5t133 -87t98.5 -126t38 -174.5q0 -180 -131.5 -304t-352.5 -124q-90 0 -175 24t-141 57q-113 65 -163 120z" />
<glyph unicode="T" horiz-adv-x="1337" d="M31 1094v229q0 72 28.5 101.5t102.5 29.5h1014q74 0 102.5 -29.5t28.5 -101.5v-229h-236v88q0 45 -45 45h-223v-1227h-268v1227h-224q-45 0 -45 -45v-88h-235z" />
<glyph unicode="U" horiz-adv-x="1515" d="M53 1227v227h262q74 0 107 -34t33 -105v-789q0 -141 81.5 -221t221 -80t221.5 80t82 223v787q0 72 32.5 105.5t106.5 33.5h262v-227h-88q-45 0 -45 -45v-664q0 -242 -156.5 -392.5t-413.5 -150.5t-415 150.5t-158 392.5v664q0 45 -45 45h-88z" />
<glyph unicode="V" horiz-adv-x="1400" d="M23 1227v227h170q76 0 111.5 -24.5t60.5 -94.5l278 -811q28 -87 49 -178l6 -35h4q27 131 56 213l278 811q25 70 59.5 94.5t110.5 24.5h172v-227h-39q-47 0 -63 -45l-434 -1182h-283l-436 1182q-16 45 -64 45h-36z" />
<glyph unicode="W" horiz-adv-x="2031" d="M33 1227v227h174q80 0 122 -25.5t58 -93.5l199 -866l24 -154h4q8 70 31 154l264 981h228l249 -981l29 -154h4q6 72 25 154l201 866q14 68 56 93.5t122 25.5h176v-227h-39q-55 0 -66 -45l-303 -1182h-309l-221 823l-37 181h-4q-12 -86 -39 -181l-231 -823h-312l-301 1182 q-10 45 -65 45h-39z" />
<glyph unicode="X" horiz-adv-x="1255" d="M10 0l451 737l-271 441q-18 33 -34.5 41t-53.5 8h-61v227h168q74 0 111.5 -21.5t74.5 -84.5l140 -242l92 -176h4q39 92 88 176l141 242q37 63 76 84.5t113 21.5h165v-227h-61q-35 0 -52.5 -9.5t-35.5 -39.5l-272 -441l452 -737h-301l-225 383l-92 170h-4 q-39 -86 -88 -170l-224 -383h-301z" />
<glyph unicode="Y" horiz-adv-x="1259" d="M20 1227v227h138q74 0 112.5 -20.5t77.5 -85.5l193 -320l88 -164h4q37 78 88 164l190 320q39 66 78 86t113 20h137v-227h-47q-33 0 -48.5 -9.5t-35.5 -39.5l-344 -543v-635h-268v635l-344 543q-20 31 -36 40t-48 9h-48z" />
<glyph unicode="Z" horiz-adv-x="1204" d="M35 0v170l653 926q54 74 96 116l15 15v4q-43 -4 -111 -4h-352q-45 0 -45 -45v-88h-244v221q0 72 33 105.5t106 33.5h944v-168l-653 -928q-54 -74 -96 -116l-14 -15v-4q43 4 110 4h397q45 0 46 45v88h241v-221q0 -74 -32.5 -106.5t-106.5 -32.5h-987z" />
<glyph unicode="[" horiz-adv-x="720" d="M188 -55v1433q0 74 33 107t107 33h264v-189h-137q-45 0 -45 -45v-1245q0 -45 45 -45h137v-189h-264q-74 0 -107 33t-33 107z" />
<glyph unicode="\" horiz-adv-x="745" d="M10 1528h223l523 -1614h-224z" />
<glyph unicode="]" horiz-adv-x="720" d="M129 -6h135q45 0 45 45v1245q0 45 -45 45h-135v189h264q74 0 106.5 -33t32.5 -107v-1433q0 -74 -32.5 -107t-106.5 -33h-264v189z" />
<glyph unicode="^" d="M133 502l412 952h164l411 -952h-225l-268 678l-269 -678h-225z" />
<glyph unicode="_" horiz-adv-x="1169" d="M10 0h1149v-201h-1149v201z" />
<glyph unicode="`" horiz-adv-x="817" d="M147 1829h250l156 -279h-193z" />
<glyph unicode="a" horiz-adv-x="1146" d="M68 306q0 155 127 234.5t261.5 97t231.5 17.5h33v9q0 111 -46 157.5t-147 46.5q-49 0 -94 -15t-45 -54v-56h-242v111q0 68 42 115t111 67q119 33 230 33q451 0 451 -416v-389q0 -45 45 -45h82v-219h-234q-68 0 -100.5 31.5t-32.5 83.5l2 45h-4q-4 -8 -10 -20.5 t-32.5 -44.5t-59.5 -56.5t-90.5 -44t-122.5 -19.5q-147 0 -251.5 88t-104.5 243zM330 313q0 -55 41 -95t128.5 -40t156.5 87t69 188v24h-45q-350 0 -350 -164z" />
<glyph unicode="b" horiz-adv-x="1265" d="M35 1233v221h248q139 0 139 -139v-303l-4 -88h4q61 92 196 130q56 15 117 15q211 0 337 -151.5t126 -396.5t-134 -395.5t-345 -150.5q-96 0 -174 37t-107 74l-30 37h-5q4 -29 5 -70v-53h-246v1188q0 45 -45 45h-82zM414 532.5q0 -147.5 68.5 -242.5t185.5 -95t192.5 87 t75.5 235t-71.5 238.5t-185.5 90.5t-189.5 -83t-75.5 -230.5z" />
<glyph unicode="c" horiz-adv-x="1101" d="M66 520q0 231 155.5 390t415.5 159q192 0 309 -95q70 -56 70 -140v-123h-230v57q0 39 -47 60.5t-102 21.5q-135 0 -222 -92t-87 -239t95 -231.5t230 -84.5q80 0 157 35.5t116 70.5l37 35l108 -180q-16 -21 -65.5 -59.5t-96.5 -63.5q-124 -66 -278 -66q-252 0 -408.5 157 t-156.5 388z" />
<glyph unicode="d" horiz-adv-x="1273" d="M66 523q0 245 133 395.5t342 150.5q160 0 259 -81q23 -19 31 -34l11 -12h4q-2 27 -2 62v184q0 45 -45 45h-82v221h248q139 0 139 -139v-1051q0 -45 45 -45h80v-219h-240q-129 0 -129 106v39h-4q-4 -6 -11 -18t-35 -41t-62 -52q-88 -59 -218 -59q-211 0 -337.5 151.5 t-126.5 396.5zM330 523.5q0 -148.5 71.5 -238.5t184.5 -90t188.5 82.5t75.5 230t-67.5 243t-185.5 95.5t-192.5 -87t-74.5 -235.5z" />
<glyph unicode="e" horiz-adv-x="1140" d="M66 528.5q0 235.5 147 388t373.5 152.5t349.5 -140.5t123 -355.5l-6 -96h-721q14 -133 102 -206.5t211 -73.5q74 0 147.5 29.5t108.5 58.5l37 28l109 -180q-96 -96 -276 -141q-71 -17 -144 -17q-252 0 -406.5 159t-154.5 394.5zM340 657h453q-2 92 -58.5 151.5 t-147.5 59.5t-157.5 -56.5t-89.5 -154.5z" />
<glyph unicode="f" horiz-adv-x="706" d="M41 838v206h129v31q0 98 30.5 171t76 113t107.5 65q97 38 212 38l88 -6v-221q-23 4 -53 4q-201 0 -201 -170v-25h223v-206h-223v-838h-260v838h-129z" />
<glyph unicode="g" horiz-adv-x="1253" d="M66 550q0 224 122.5 371.5t339.5 147.5q137 0 218 -53q74 -47 94 -78l10 -16h4v26q0 39 28.5 67.5t86.5 28.5h241v-221h-80q-45 0 -45 -41v-719q0 -129 -47 -227t-127 -154q-158 -112 -367.5 -112t-379.5 90l80 205q129 -70 273 -70t227 61.5t83 194.5v49l2 56h-4 q-94 -135 -301 -136h-1q-205 0 -331 153t-126 377zM330 554q0 -138 68.5 -226t183 -88t183.5 71.5t69 235.5q0 301 -261 301q-117 0 -180 -78t-63 -216z" />
<glyph unicode="h" horiz-adv-x="1310" d="M35 1233v221h248q139 0 139 -137v-367l-4 -88h4q41 84 136 145.5t222 61.5q365 0 365 -397v-408q0 -45 45 -45h82v-219h-248q-72 0 -104.5 33t-32.5 106v479q0 104 -37 158.5t-133 54.5t-172 -60t-99.5 -136t-23.5 -156v-479h-260v1188q0 45 -45 45h-82z" />
<glyph unicode="i" horiz-adv-x="612" d="M51 823v221h248q72 0 104.5 -33.5t32.5 -105.5v-641q0 -45 45 -45h82v-219h-248q-72 0 -104.5 32.5t-32.5 106.5v639q0 45 -45 45h-82zM190 1214v240h226v-240h-226z" />
<glyph unicode="j" horiz-adv-x="624" d="M-39 -199q18 -4 49 -4t61.5 7.5t65.5 24.5t56.5 59t21.5 102v788q0 45 -45 45h-82v221h248q74 0 106.5 -33.5t32.5 -105.5v-936q0 -100 -32.5 -175t-79 -114.5t-109.5 -64.5q-100 -39 -215 -39l-78 6v219zM225 1214v240h228v-240h-228z" />
<glyph unicode="k" horiz-adv-x="1132" d="M35 1233v221h248q76 0 107.5 -24.5t31.5 -94.5v-659h78q72 0 98 39l213 329h289l-264 -393q-34 -49 -78 -82v-4q37 -14 73 -82l119 -225q20 -39 86 -39h70v-219h-193q-68 0 -100.5 17.5t-62.5 72.5l-175 328q-23 39 -96 39h-57v-457h-260v1188q0 45 -45 45h-82z" />
<glyph unicode="l" horiz-adv-x="595" d="M37 1233v221h248q139 0 139 -139v-1051q0 -45 45 -45h80v-219h-246q-74 0 -106.5 32.5t-32.5 106.5v1049q0 45 -45 45h-82z" />
<glyph unicode="m" horiz-adv-x="1931" d="M43 823v221h240q137 0 137 -116v-31l-2 -45h4q41 86 132 151.5t206 65.5q238 0 305 -215h4q45 90 141.5 152.5t214.5 62.5q342 0 342 -397v-408q0 -45 45 -45h80v-219h-245q-74 0 -107 33t-33 106v484q0 102 -29.5 155t-117.5 53t-155.5 -68.5t-90.5 -170.5 q-16 -55 -16 -133v-459h-260v623q0 100 -28 154t-118 54t-155.5 -67.5t-87 -153.5t-21.5 -151v-459h-258v778q0 45 -45 45h-82z" />
<glyph unicode="n" horiz-adv-x="1316" d="M43 823v221h240q137 0 137 -116v-31l-4 -45h4q43 86 135 151.5t233 65.5q365 0 365 -397v-408q0 -45 45 -45h82v-219h-248q-74 0 -106.5 33t-32.5 106v479q0 104 -36 158.5t-133 54.5t-172 -58t-103 -155q-20 -61 -21 -139v-479h-258v778q0 45 -45 45h-82z" />
<glyph unicode="o" horiz-adv-x="1275" d="M66 522.5q0 237.5 164.5 392t406.5 154.5t407.5 -154.5t165.5 -392t-164.5 -392.5t-407.5 -155t-407.5 155t-164.5 392.5zM328 521q0 -142 90 -233t220 -91t220 91t90 233t-91 234.5t-220 92.5t-219 -92.5t-90 -234.5z" />
<glyph unicode="p" horiz-adv-x="1271" d="M43 823v221h231q131 0 132 -100v-41h4q4 6 11 17.5t35.5 40t62.5 50t94.5 40t127.5 18.5q211 0 338 -151.5t127 -396.5t-135 -395.5t-344 -150.5q-92 0 -167 35t-103 68l-29 35h-4q4 -37 4 -90v-433h-258v1188q0 45 -45 45h-82zM422 532.5q0 -147.5 67.5 -242.5 t185.5 -95t193.5 87t75.5 235t-71.5 238.5t-185.5 90.5t-189.5 -83t-75.5 -230.5z" />
<glyph unicode="q" horiz-adv-x="1273" d="M68 523q0 245 132 395.5t341 150.5q136 0 217 -55q74 -49 96 -84l10 -15h4v37q0 92 133 92h230v-221h-82q-45 0 -45 -45v-1188h-260v443l4 90h-4q-61 -92 -194 -131q-56 -17 -120 -17q-211 0 -336.5 151.5t-125.5 396.5zM330 523.5q0 -148.5 71.5 -238.5t185.5 -90 t189.5 82.5t75.5 230t-68.5 243t-185.5 95.5t-192.5 -87t-75.5 -235.5z" />
<glyph unicode="r" horiz-adv-x="843" d="M43 823v221h238q139 0 139 -126v-62l-4 -65h4q37 117 126 192.5t206 75.5l47 -4v-256q-27 4 -64 4q-92 0 -172 -55q-135 -94 -135 -334v-414h-258v778q0 45 -45 45h-82z" />
<glyph unicode="s" horiz-adv-x="958" d="M51 162l123 170q14 -16 42 -42t109 -69t152 -43q150 0 150 103q0 39 -56.5 72.5t-137.5 64.5t-163 70.5t-138 110.5t-56 165q0 150 115.5 227.5t289.5 77.5q127 0 210 -34q157 -64 157 -183v-109h-230v52q0 35 -40.5 54t-101.5 19t-102.5 -24.5t-41.5 -69.5t57 -78.5 t139 -62.5t163 -66t138.5 -106.5t57.5 -165.5q0 -145 -114 -232.5t-288 -87.5q-127 0 -235.5 47.5t-153.5 92.5z" />
<glyph unicode="t" horiz-adv-x="757" d="M39 838v206h141v285h254v-285h238v-206h-238v-422q0 -113 64.5 -155t142.5 -42l47 4v-227q-33 -6 -83 -6t-99 7t-112.5 31.5t-109.5 64.5t-78 115t-32 175v455h-135z" />
<glyph unicode="u" horiz-adv-x="1306" d="M39 823v221h248q72 0 104.5 -32.5t32.5 -104.5v-481q0 -104 36 -158.5t126 -54.5q135 0 214 102.5t79 249.5v479h260v-780q0 -45 45 -45h82v-219h-240q-137 0 -137 117v28l2 48h-4q-41 -90 -137.5 -154t-223.5 -64q-360 1 -360 398v405q0 45 -45 45h-82z" />
<glyph unicode="v" horiz-adv-x="1116" d="M25 823v221h149q63 0 98 -22.5t56 -75.5l196 -549l39 -149h4q16 88 37 149l197 549q20 53 55 75.5t98 22.5h140v-221h-25q-43 0 -57 -37l-299 -786h-310l-299 786q-14 37 -57 37h-22z" />
<glyph unicode="w" horiz-adv-x="1710" d="M20 823v221h179q66 0 99.5 -23.5t47.5 -82.5l154 -580l20 -110h4q8 55 25 110l192 682h230l194 -682l23 -110h4q6 55 20 110l152 580q14 59 48 82.5t99 23.5h179v-221h-29q-43 0 -57 -37l-250 -786h-293l-178 596l-25 113h-4q-10 -57 -27 -113l-176 -596h-295l-250 786 q-12 37 -57 37h-29z" />
<glyph unicode="x" horiz-adv-x="1048" d="M23 0l339 528l-172 260q-23 35 -79 35h-76v221h182q66 0 100.5 -19t69.5 -79l102 -172l33 -67h4q18 41 33 67l103 172q35 59 68.5 78.5t100.5 19.5h181v-221h-74q-57 0 -80 -35l-174 -260l342 -528h-289l-182 291l-29 55h-4q-16 -33 -30 -55l-181 -291h-288z" />
<glyph unicode="y" horiz-adv-x="1132" d="M2 -324l100 185q63 -72 150 -72q117 0 172 133l35 80l-348 784q-14 37 -56 37h-30v221h172q55 0 85.5 -22.5t51.5 -75.5l205 -522l36 -139h5q16 86 34 139l179 522q33 98 139 98h176v-221h-31q-45 0 -59 -37l-375 -944q-53 -135 -153.5 -203.5t-223.5 -68.5 q-74 0 -139.5 26.5t-93.5 53.5z" />
<glyph unicode="z" horiz-adv-x="1046" d="M55 0v139l482 588q38 52 77 84l11 12v4q-31 -4 -97 -4h-188q-45 0 -45 -45v-59h-236v186q0 72 33 105.5t107 33.5h766v-141l-482 -588l-88 -96v-4q31 6 99 6h229q45 0 45 45v58h236v-185q0 -74 -33 -106.5t-105 -32.5h-811z" />
<glyph unicode="{" horiz-adv-x="720" d="M49 557v227q22 0 56 14.5t57 35.5q61 56 61 167v177q0 88 28 154.5t65.5 102t91.5 55.5q90 34 178 34l63 -2v-193q-16 2 -45 2t-61.5 -9t-65.5 -51t-33 -114v-223q0 -117 -59 -182q-56 -61 -109 -78v-4q107 -36 150 -151q18 -48 18 -107v-246q0 -113 65 -146 q53 -28 103 -28l37 2v-193q-27 -4 -66.5 -4t-79.5 6.5t-94.5 26.5t-92 56t-65.5 102.5t-28 156.5v199q0 90 -44 143.5t-87 61.5z" />
<glyph unicode="|" horiz-adv-x="638" d="M209 -330v1960h221v-1960h-221z" />
<glyph unicode="}" horiz-adv-x="720" d="M72 -6q16 -2 37 -2q166 0 165 174v246q0 118 60 182q55 58 110 76v4q-60 20 -110 80q-60 70 -60 180v223q0 110 -63 145q-50 29 -102 29l-37 -2v193q27 2 66.5 2t79.5 -6.5t94.5 -27t92 -56t65.5 -102t28 -154.5v-177q0 -92 44 -146t87 -62l43 -9v-227q-22 0 -56 -14.5 t-57.5 -35t-42 -63.5t-18.5 -100v-199q0 -90 -28 -156.5t-65.5 -102.5t-92.5 -56q-89 -33 -177 -33l-63 4v193z" />
<glyph unicode="~" d="M115 408q0 373 315 372q70 0 126 -28.5t88 -64.5q83 -93 154.5 -93t103.5 51t32 127h205q0 -373 -314 -373q-70 0 -126 29t-87 64q-85 92 -155.5 92t-102.5 -50.5t-32 -125.5h-207z" />
<glyph unicode="&#xa1;" horiz-adv-x="679" d="M205 -410l22 1033h228l20 -1033h-270zM215 801v241h250v-241h-250z" />
<glyph unicode="&#xa2;" horiz-adv-x="1198" d="M113 727q0 223 116.5 384t307.5 194v223h182v-223q133 -25 232.5 -113t146.5 -219l-234 -90q-72 182 -229 182q-115 0 -187.5 -95.5t-72.5 -246t70.5 -242.5t189.5 -92q160 0 229 182l234 -90q-49 -125 -145.5 -219t-233.5 -110v-228h-182v228q-190 33 -307 192.5 t-117 382.5z" />
<glyph unicode="&#xa3;" horiz-adv-x="1200" d="M96 0v227h119v410h-90v178h90v248q0 180 132 298t335 118q98 0 189.5 -37t132.5 -74l43 -37l-150 -180q-96 88 -198.5 88t-159 -52t-56.5 -132v-240h363v-178h-363v-410h344q45 0 45 45v88h242v-221q0 -74 -32.5 -106.5t-104.5 -32.5h-881z" />
<glyph unicode="&#xa5;" horiz-adv-x="1271" d="M27 1227v227h133q74 0 115.5 -20.5t80.5 -85.5l191 -320l88 -160h4q37 74 88 160l191 320q39 66 79.5 86t114.5 20h133v-227h-43q-35 0 -51 -8.5t-35 -36.5l-188 -301v-4h168v-156h-271l-55 -86v-82h326v-156h-326v-397h-268v397h-328v156h328v82l-56 86h-274v156h172v4 l-188 301q-18 29 -35 37t-51 8h-43z" />
<glyph unicode="&#xa7;" horiz-adv-x="1030" d="M125 -2l111 176q12 -10 31.5 -25.5t81 -40t136 -24.5t134 52t59.5 155q0 49 -19 117l-137 661h205l145 -704q14 -72 15 -117q0 -166 -111.5 -270.5t-308.5 -104.5q-96 0 -181 30.5t-122 63.5zM164 1104q0 166 111.5 270.5t308.5 104.5q96 0 181 -32t124 -63l37 -32 l-117 -166q-94 80 -205 80q-229 0 -229 -193q0 -47 14 -102l141 -688h-202l-150 704q-14 68 -14 117z" />
<glyph unicode="&#xa8;" horiz-adv-x="1042" d="M260 1591v238h180v-238h-180zM627 1591v238h182v-238h-182z" />
<glyph unicode="&#xa9;" horiz-adv-x="1599" d="M66 727q0 311 214 530.5t519 219.5t520 -219.5t215 -530.5t-215 -531.5t-520 -220.5t-519 220.5t-214 531.5zM248 727q0 -246 158.5 -416t392.5 -170t394.5 170t160.5 416t-161 415t-394 169t-392 -169t-159 -415zM424 723q0 166 108.5 282.5t274.5 116.5q137 0 224 -76 q74 -65 97 -116l11 -23l-156 -73q-37 74 -107 105q-30 13 -63 13q-90 0 -145.5 -65.5t-55.5 -164.5t54.5 -163.5t146.5 -64.5q53 0 95 29.5t59 58.5l16 30l156 -71q-109 -217 -332 -217q-166 0 -274.5 116.5t-108.5 282.5z" />
<glyph unicode="&#xaa;" horiz-adv-x="851" d="M100 993q0 55 28 96t66.5 64t91.5 36q87 21 181 21h29q-2 63 -24.5 88t-84.5 25t-61 -31v-30h-176v86q0 39 27.5 65.5t70.5 38.5q82 23 147 23q287 0 287 -269v-221q0 -25 23 -24h53v-164h-140q-92 0 -104 71l-2 19h-4q-18 -36 -72.5 -69.5t-129 -33.5t-140.5 56.5 t-66 152.5zM102 545v139h660v-139h-660zM291 1001q0 -69 78 -69q55 0 89 45t40 113h-21q-186 0 -186 -89z" />
<glyph unicode="&#xab;" horiz-adv-x="1257" d="M94 578l336 421h248l-336 -421l336 -420h-248zM553 578l336 421h248l-336 -421l336 -420h-248z" />
<glyph unicode="&#xac;" d="M135 694v201h1000v-602h-209v401h-791z" />
<glyph unicode="&#xad;" horiz-adv-x="882" d="M133 471v227h617v-227h-617z" />
<glyph unicode="&#xae;" horiz-adv-x="1599" d="M66 727q0 311 214 530.5t519 219.5t520 -219.5t215 -530.5t-215 -531.5t-520 -220.5t-519 220.5t-214 531.5zM248 727q0 -246 158.5 -416t392.5 -170t394.5 170t160.5 416t-161 415t-394 169t-392 -169t-159 -415zM475 979v127h377q111 0 178.5 -65.5t67.5 -159 t-42 -144.5t-91 -63v-4q27 -6 47 -41l65 -123q14 -25 45 -25h23v-125h-98q-43 0 -66 11.5t-41 44.5l-100 188q-18 33 -68 33h-57v-277h-174v623h-66zM715 756h96q51 0 80 29.5t29 83t-29 82t-78 28.5h-98v-223z" />
<glyph unicode="&#xaf;" horiz-adv-x="956" d="M213 1604v172h537v-172h-537z" />
<glyph unicode="&#xb0;" horiz-adv-x="839" d="M86 1156q0 134 97.5 229.5t235.5 95.5t236.5 -95.5t98.5 -229.5t-97.5 -227t-236.5 -93t-236.5 93t-97.5 227zM285 1156q0 -56 38.5 -95t96 -39t97.5 39t40 95t-40 96t-97.5 40t-96 -40t-38.5 -96z" />
<glyph unicode="&#xb1;" d="M86 483v203h442v485h211v-485h443v-203h-443v-483h-211v483h-442zM115 -174h1040v-201h-1040v201z" />
<glyph unicode="&#xb2;" horiz-adv-x="894" d="M106 674.5q0 74.5 20.5 125t63.5 90.5q68 63 160 115t136 93t44 92t-29.5 76.5t-74.5 25.5t-72.5 -18.5t-27.5 -42.5v-45h-181v102q0 88 92.5 135t205 47t199.5 -72.5t87 -197.5q0 -131 -94 -212q-67 -57 -159.5 -107t-130.5 -81.5t-38 -70.5q0 -12 23 -12h245 q12 0 13 12v68h180v-150q0 -100 -100 -100h-459q-59 0 -81 26.5t-22 101z" />
<glyph unicode="&#xb3;" horiz-adv-x="894" d="M111 713l135 121q33 -46 91 -83.5t111 -37.5t91.5 32.5t38.5 82.5t-39 80t-101 30h-71l-27 109l147 198l41 43v4q-31 -4 -63 -4h-115q-18 0 -18 -18v-49h-180v133q0 55 21.5 77.5t76.5 22.5h504v-133l-189 -234q94 -20 152.5 -94.5t58.5 -167.5q0 -131 -97 -213t-230 -82 q-90 0 -175.5 46.5t-123.5 91.5z" />
<glyph unicode="&#xb4;" horiz-adv-x="827" d="M252 1550l156 279h249l-215 -279h-190z" />
<glyph unicode="&#xb6;" horiz-adv-x="1280" d="M80 975q0 201 141 340t340 139h625v-227h-436v-1329h-189v596q-199 0 -340 140t-141 341zM877 -102v1216h190v-1216h-190z" />
<glyph unicode="&#xb7;" horiz-adv-x="542" d="M145 469v258h252v-258h-252z" />
<glyph unicode="&#xb8;" horiz-adv-x="860" d="M231 -268q43 -16 91 -17q88 0 88 56.5t-99 56.5l-43 -4l64 227l119 -26v-15l-21 -100q66 -8 108 -48t42 -121t-64.5 -124t-157.5 -43q-62 0 -110 12l-17 2v144z" />
<glyph unicode="&#xb9;" horiz-adv-x="894" d="M127 1229l235 225h170v-737h187v-170h-572v170h189v420l2 63h-4q-8 -18 -23 -31l-69 -65z" />
<glyph unicode="&#xba;" horiz-adv-x="931" d="M106 1131.5q0 148.5 104.5 246t255.5 97.5t255 -97.5t104 -246t-104 -247t-255 -98.5t-255.5 98.5t-104.5 247zM137 545v139h660v-139h-660zM293 1131.5q0 -78.5 50 -130t123 -51.5t123 51.5t50 130.5t-50 130t-123 51t-123 -51.5t-50 -130z" />
<glyph unicode="&#xbb;" horiz-adv-x="1257" d="M119 158l336 420l-336 421h248l335 -421l-335 -420h-248zM580 158l335 420l-335 421h247l336 -421l-336 -420h-247z" />
<glyph unicode="&#xbc;" horiz-adv-x="1931" d="M137 1229l234 225h170v-737h178v-170h-561v170h188v420l2 63h-4q-8 -18 -22 -31l-70 -65zM614 0l568 1454h202l-567 -1454h-203zM1102 221v115l358 573h236v-516h133v-172h-133v-221h-197v221h-397zM1300 391q25 2 39 2h164v244l2 70h-4q-12 -31 -28 -58l-144 -219 l-29 -35v-4z" />
<glyph unicode="&#xbd;" horiz-adv-x="1931" d="M137 1229l234 225h170v-737h178v-170h-561v170h188v420l2 63h-4q-8 -18 -22 -31l-70 -65zM590 0l567 1454h201l-567 -1454h-201zM1161 128.5q0 73.5 20.5 125t62.5 91.5t77 63.5t92 56.5t88 53.5t58.5 56t27.5 77.5t-29.5 67.5t-75.5 25.5t-73 -17t-27 -42v-47h-180v102 q0 88 92 136.5t204 48.5t200 -74t88 -199q0 -133 -94 -211q-77 -64 -165 -109.5t-125.5 -78.5t-37.5 -72q0 -12 22 -12h244q12 0 12 14v66h183v-150q0 -100 -103 -100h-456q-61 0 -83 27.5t-22 101z" />
<glyph unicode="&#xbe;" horiz-adv-x="1931" d="M119 713l133 121q33 -46 91 -83.5t111.5 -37.5t91.5 32.5t38 82.5t-39 80t-101 30h-71l-27 109l148 198l41 43v4q-31 -4 -64 -4h-115q-18 0 -18 -18v-49h-180v133q0 55 21.5 77.5t76.5 22.5h504v-133l-189 -234q94 -20 152.5 -94.5t58.5 -167.5q0 -131 -97 -213t-230 -82 q-90 0 -174 46.5t-123 91.5zM608 0l568 1454h200l-565 -1454h-203zM1102 221v115l358 573h236v-516h133v-172h-133v-221h-197v221h-397zM1300 391q25 2 39 2h164v244l2 70h-4q-12 -31 -28 -58l-144 -219l-29 -35v-4z" />
<glyph unicode="&#xbf;" horiz-adv-x="974" d="M68 -45q0 92 36.5 168t89 125t105.5 94q127 108 127 211v72h250v-90q0 -82 -35 -151t-84 -115t-98 -88q-119 -102 -119 -201q0 -72 57.5 -122.5t124.5 -50.5q109 0 205 66l29 23l145 -181q-16 -16 -47 -40.5t-131 -64.5t-207 -40q-182 0 -315 104.5t-133 280.5zM426 803 v241h250v-241h-250z" />
<glyph unicode="&#xc0;" horiz-adv-x="1380" d="M23 0v227h32q49 0 64 45l432 1182h280l431 -1182q14 -45 63 -45h33v-227h-160q-76 0 -111.5 24.5t-60.5 94.5l-90 254h-492l-90 -254q-25 -70 -59.5 -94.5t-110.5 -24.5h-161zM377 1829h250l155 -279h-192zM506 594h368l-124 364l-58 218h-4q-31 -137 -57 -218z" />
<glyph unicode="&#xc1;" horiz-adv-x="1380" d="M23 0v227h32q49 0 64 45l432 1182h280l431 -1182q14 -45 63 -45h33v-227h-160q-76 0 -111.5 24.5t-60.5 94.5l-90 254h-492l-90 -254q-25 -70 -59.5 -94.5t-110.5 -24.5h-161zM506 594h368l-124 364l-58 218h-4q-31 -137 -57 -218zM590 1550l155 279h250l-215 -279h-190z " />
<glyph unicode="&#xc2;" horiz-adv-x="1380" d="M23 0v227h32q49 0 64 45l432 1182h280l431 -1182q14 -45 63 -45h33v-227h-160q-76 0 -111.5 24.5t-60.5 94.5l-90 254h-492l-90 -254q-25 -70 -59.5 -94.5t-110.5 -24.5h-161zM393 1550l187 279h223l188 -279h-194l-103 166h-4l-104 -166h-193zM506 594h368l-124 364 l-58 218h-4q-31 -137 -57 -218z" />
<glyph unicode="&#xc3;" horiz-adv-x="1380" d="M23 0v227h32q49 0 64 45l432 1182h280l431 -1182q14 -45 63 -45h33v-227h-160q-76 0 -111.5 24.5t-60.5 94.5l-90 254h-492l-90 -254q-25 -70 -59.5 -94.5t-110.5 -24.5h-161zM319 1552q0 281 234 281q59 0 107.5 -34t84 -66.5t73.5 -32.5t59.5 37t21.5 90h162 q0 -281 -234 -281q-59 0 -107 34t-84 66.5t-74 32.5t-59.5 -35.5t-21.5 -91.5h-162zM506 594h368l-124 364l-58 218h-4q-31 -137 -57 -218z" />
<glyph unicode="&#xc4;" horiz-adv-x="1380" d="M23 0v227h32q49 0 64 45l432 1182h280l431 -1182q14 -45 63 -45h33v-227h-160q-76 0 -111.5 24.5t-60.5 94.5l-90 254h-492l-90 -254q-25 -70 -59.5 -94.5t-110.5 -24.5h-161zM418 1591v238h180v-238h-180zM506 594h368l-124 364l-58 218h-4q-31 -137 -57 -218zM784 1591 v238h183v-238h-183z" />
<glyph unicode="&#xc5;" horiz-adv-x="1380" d="M23 0v227h32q49 0 64 45l432 1182h280l431 -1182q14 -45 63 -45h33v-227h-160q-76 0 -111.5 24.5t-60.5 94.5l-90 254h-492l-90 -254q-25 -70 -59.5 -94.5t-110.5 -24.5h-161zM506 594h368l-124 364l-58 218h-4q-31 -137 -57 -218zM508 1687q0 75 54 117.5t128 42.5 t128 -43t54 -117.5t-54 -117.5t-128 -43t-128 43t-54 118zM618 1686.5q0 -31.5 20.5 -51t51.5 -19.5t51.5 19.5t20.5 51.5t-20.5 51t-51.5 19t-51.5 -19.5t-20.5 -51z" />
<glyph unicode="&#xc6;" horiz-adv-x="1824" d="M23 0v227h28q29 0 41 9.5t23 35.5l485 1182h989q74 0 107 -34t33 -105v-221h-244v88q0 45 -45 45h-320v-381h465v-228h-465v-346q0 -45 51 -45h324q45 0 45 45v88h242v-221q0 -74 -33 -106.5t-107 -32.5h-645q-80 0 -113.5 30.5t-33.5 108.5v479h-326l-186 -499 q-27 -70 -61.5 -94.5t-110.5 -24.5h-143zM610 846h240v381h-96z" />
<glyph unicode="&#xc7;" horiz-adv-x="1452" d="M61 746q0 308 211 520.5t527 212.5q164 0 344 -70q90 -35 148.5 -101.5t58.5 -154.5v-162h-244v82q0 74 -95.5 115t-205.5 41q-201 0 -333 -133t-132 -352.5t135 -369t332 -149.5q200 0 367 123q40 29 59 49l20 19l142 -191q-22 -28 -84 -76.5t-122.5 -80t-157.5 -59 t-200 -32.5l-14 -67q66 -8 108 -48t42 -121t-63.5 -124t-158.5 -43q-26 0 -124 14v144q43 -16 88 -17q90 0 90 56.5t-99 56.5l-43 -4l43 158q-289 33 -464 244.5t-175 519.5z" />
<glyph unicode="&#xc8;" horiz-adv-x="1183" d="M70 1227v227h878q139 0 139 -139v-221h-243v88q0 45 -45 45h-328v-381h471v-228h-471v-346q0 -45 45 -45h336q45 0 45 45v88h244v-221q0 -74 -34 -106.5t-106 -32.5h-659q-74 0 -106.5 32.5t-32.5 106.5v1088h-133zM295 1829h250l155 -279h-192z" />
<glyph unicode="&#xc9;" horiz-adv-x="1183" d="M70 1227v227h878q139 0 139 -139v-221h-243v88q0 45 -45 45h-328v-381h471v-228h-471v-346q0 -45 45 -45h336q45 0 45 45v88h244v-221q0 -74 -34 -106.5t-106 -32.5h-659q-74 0 -106.5 32.5t-32.5 106.5v1088h-133zM508 1550l156 279h249l-215 -279h-190z" />
<glyph unicode="&#xca;" horiz-adv-x="1183" d="M70 1227v227h878q139 0 139 -139v-221h-243v88q0 45 -45 45h-328v-381h471v-228h-471v-346q0 -45 45 -45h336q45 0 45 45v88h244v-221q0 -74 -34 -106.5t-106 -32.5h-659q-74 0 -106.5 32.5t-32.5 106.5v1088h-133zM309 1550l187 279h223l188 -279h-194l-103 166h-4 l-104 -166h-193z" />
<glyph unicode="&#xcb;" horiz-adv-x="1183" d="M70 1227v227h878q139 0 139 -139v-221h-243v88q0 45 -45 45h-328v-381h471v-228h-471v-346q0 -45 45 -45h336q45 0 45 45v88h244v-221q0 -74 -34 -106.5t-106 -32.5h-659q-74 0 -106.5 32.5t-32.5 106.5v1088h-133zM336 1591v238h180v-238h-180zM702 1591v238h183v-238 h-183z" />
<glyph unicode="&#xcc;" horiz-adv-x="700" d="M37 1829h250l155 -279h-192zM78 0v227h145v1000h-145v227h545v-227h-146v-1000h146v-227h-545z" />
<glyph unicode="&#xcd;" horiz-adv-x="700" d="M78 0v227h145v1000h-145v227h545v-227h-146v-1000h146v-227h-545zM250 1550l156 279h249l-215 -279h-190z" />
<glyph unicode="&#xce;" horiz-adv-x="700" d="M51 1550l187 279h223l188 -279h-194l-103 166h-4l-104 -166h-193zM78 0v227h145v1000h-145v227h545v-227h-146v-1000h146v-227h-545z" />
<glyph unicode="&#xcf;" horiz-adv-x="700" d="M76 1591v238h180v-238h-180zM78 0v227h145v1000h-145v227h545v-227h-146v-1000h146v-227h-545zM442 1591v238h183v-238h-183z" />
<glyph unicode="&#xd0;" horiz-adv-x="1464" d="M70 1227v227h592q340 0 540.5 -192.5t200.5 -532.5t-201 -534.5t-540 -194.5h-320q-74 0 -106.5 32.5t-32.5 106.5v477h-99v215h99v396h-133zM471 272q0 -45 45 -45h131q221 0 349 130t128 370t-129 370t-348 130h-176v-396h252v-215h-252v-344z" />
<glyph unicode="&#xd1;" horiz-adv-x="1576" d="M70 0v227h88q45 0 45 45v1182h241l551 -805q61 -90 103 -172l18 -33h4q-14 121 -14 205v666q0 72 32.5 105.5t106.5 33.5h262v-227h-88q-45 0 -45 -45v-1182h-239l-553 803q-61 90 -103 172l-18 33h-4q14 -121 14 -205v-664q0 -74 -32.5 -106.5t-106.5 -32.5h-262z M434 1552q0 281 234 281q59 0 107 -34t84 -66.5t74 -32.5t59.5 37t21.5 90h162q0 -281 -234 -281q-61 0 -108.5 34t-83 66.5t-73.5 32.5t-59.5 -35.5t-21.5 -91.5h-162z" />
<glyph unicode="&#xd2;" horiz-adv-x="1626" d="M61 732.5q0 317.5 216.5 532t536 214.5t535.5 -214t216 -532t-216 -538t-535.5 -220t-536 220t-216.5 537.5zM340 732q0 -212 137 -359.5t336 -147.5t336 147.5t137 359.5t-137 354.5t-336 142.5t-336 -142.5t-137 -354.5zM496 1829h249l156 -279h-192z" />
<glyph unicode="&#xd3;" horiz-adv-x="1626" d="M61 732.5q0 317.5 216.5 532t536 214.5t535.5 -214t216 -532t-216 -538t-535.5 -220t-536 220t-216.5 537.5zM340 732q0 -212 137 -359.5t336 -147.5t336 147.5t137 359.5t-137 354.5t-336 142.5t-336 -142.5t-137 -354.5zM709 1550l155 279h250l-215 -279h-190z" />
<glyph unicode="&#xd4;" horiz-adv-x="1626" d="M61 732.5q0 317.5 216.5 532t536 214.5t535.5 -214t216 -532t-216 -538t-535.5 -220t-536 220t-216.5 537.5zM340 732q0 -212 137 -359.5t336 -147.5t336 147.5t137 359.5t-137 354.5t-336 142.5t-336 -142.5t-137 -354.5zM510 1550l186 279h224l188 -279h-195l-102 166 h-4l-105 -166h-192z" />
<glyph unicode="&#xd5;" horiz-adv-x="1626" d="M61 732.5q0 317.5 216.5 532t536 214.5t535.5 -214t216 -532t-216 -538t-535.5 -220t-536 220t-216.5 537.5zM340 732q0 -212 137 -359.5t336 -147.5t336 147.5t137 359.5t-137 354.5t-336 142.5t-336 -142.5t-137 -354.5zM436 1552q0 281 234 281q59 0 107 -34t84 -66.5 t74 -32.5t59.5 37t21.5 90h162q0 -281 -234 -281q-59 0 -107.5 34t-84 66.5t-73.5 32.5t-59.5 -35.5t-21.5 -91.5h-162z" />
<glyph unicode="&#xd6;" horiz-adv-x="1626" d="M61 732.5q0 317.5 216.5 532t536 214.5t535.5 -214t216 -532t-216 -538t-535.5 -220t-536 220t-216.5 537.5zM340 732q0 -212 137 -359.5t336 -147.5t336 147.5t137 359.5t-137 354.5t-336 142.5t-336 -142.5t-137 -354.5zM535 1591v238h180v-238h-180zM901 1591v238h182 v-238h-182z" />
<glyph unicode="&#xd7;" d="M94 141l404 445l-404 442l142 143l399 -438l399 438l142 -143l-406 -442l406 -445l-142 -141l-399 438l-399 -438z" />
<glyph unicode="&#xd8;" horiz-adv-x="1628" d="M63 737q0 313 216.5 527.5t535.5 214.5q207 0 381 -101l94 129l117 -80l-94 -129q119 -104 186.5 -249.5t67.5 -311.5q0 -322 -216 -542t-536 -220q-209 0 -381 101l-94 -129l-117 80l92 131q-252 225 -252 579zM342 734q0 -210 135 -355l567 788q-106 61 -229 62 q-199 0 -336 -142.5t-137 -352.5zM586 287q102 -61 229 -62q197 0 334 147.5t137 355.5t-133 347z" />
<glyph unicode="&#xd9;" horiz-adv-x="1515" d="M53 1227v227h262q74 0 107 -34t33 -105v-789q0 -141 81.5 -221t221 -80t221.5 80t82 223v787q0 72 32.5 105.5t106.5 33.5h262v-227h-88q-45 0 -45 -45v-664q0 -242 -156.5 -392.5t-413.5 -150.5t-415 150.5t-158 392.5v664q0 45 -45 45h-88zM446 1829h250l156 -279h-193 z" />
<glyph unicode="&#xda;" horiz-adv-x="1515" d="M53 1227v227h262q74 0 107 -34t33 -105v-789q0 -141 81.5 -221t221 -80t221.5 80t82 223v787q0 72 32.5 105.5t106.5 33.5h262v-227h-88q-45 0 -45 -45v-664q0 -242 -156.5 -392.5t-413.5 -150.5t-415 150.5t-158 392.5v664q0 45 -45 45h-88zM659 1550l156 279h250 l-215 -279h-191z" />
<glyph unicode="&#xdb;" horiz-adv-x="1515" d="M53 1227v227h262q74 0 107 -34t33 -105v-789q0 -141 81.5 -221t221 -80t221.5 80t82 223v787q0 72 32.5 105.5t106.5 33.5h262v-227h-88q-45 0 -45 -45v-664q0 -242 -156.5 -392.5t-413.5 -150.5t-415 150.5t-158 392.5v664q0 45 -45 45h-88zM461 1550l186 279h223 l189 -279h-195l-102 166h-4l-105 -166h-192z" />
<glyph unicode="&#xdc;" horiz-adv-x="1515" d="M53 1227v227h262q74 0 107 -34t33 -105v-789q0 -141 81.5 -221t221 -80t221.5 80t82 223v787q0 72 32.5 105.5t106.5 33.5h262v-227h-88q-45 0 -45 -45v-664q0 -242 -156.5 -392.5t-413.5 -150.5t-415 150.5t-158 392.5v664q0 45 -45 45h-88zM485 1591v238h181v-238h-181 zM852 1591v238h182v-238h-182z" />
<glyph unicode="&#xdd;" horiz-adv-x="1259" d="M20 1227v227h138q74 0 112.5 -20.5t77.5 -85.5l193 -320l88 -164h4q37 78 88 164l190 320q39 66 78 86t113 20h137v-227h-47q-33 0 -48.5 -9.5t-35.5 -39.5l-344 -543v-635h-268v635l-344 543q-20 31 -36 40t-48 9h-48zM530 1550l156 279h250l-215 -279h-191z" />
<glyph unicode="&#xde;" horiz-adv-x="1249" d="M70 1227v227h262q74 0 106.5 -34t32.5 -105v-96h264q205 0 334 -131.5t129 -342t-129 -344t-336 -133.5h-262v-268h-268v1182q0 45 -45 45h-88zM471 496h215q113 0 175.5 67.5t62.5 182t-61.5 180t-172.5 65.5h-219v-495z" />
<glyph unicode="&#xdf;" horiz-adv-x="1224" d="M37 0v219h72q45 0 45 45v819q0 184 140 290t325.5 106t308.5 -102.5t123 -254.5q0 -61 -29 -115.5t-64 -86.5q-92 -84 -92 -152q0 -55 117 -139q49 -35 98 -78q117 -103 117 -253.5t-106.5 -236.5t-262.5 -86q-88 0 -163.5 21.5t-108.5 44.5l-31 20l60 201 q94 -66 205 -65q145 0 145 122q0 77 -166 189q-61 41 -113.5 108.5t-52.5 140.5t46 134t92 117.5t46 111.5t-45 96t-128 41t-142 -49t-59 -143v-926q0 -74 -33 -106.5t-107 -32.5h-237z" />
<glyph unicode="&#xe0;" horiz-adv-x="1146" d="M68 306q0 155 127 234.5t261.5 97t231.5 17.5h33v9q0 111 -46 157.5t-147 46.5q-49 0 -94 -15t-45 -54v-56h-242v111q0 68 42 115t111 67q119 33 230 33q451 0 451 -416v-389q0 -45 45 -45h82v-219h-234q-68 0 -100.5 31.5t-32.5 83.5l2 45h-4q-4 -8 -10 -20.5 t-32.5 -44.5t-59.5 -56.5t-90.5 -44t-122.5 -19.5q-147 0 -251.5 88t-104.5 243zM242 1452h250l155 -278h-192zM330 313q0 -55 41 -95t128.5 -40t156.5 87t69 188v24h-45q-350 0 -350 -164z" />
<glyph unicode="&#xe1;" horiz-adv-x="1146" d="M68 306q0 155 127 234.5t261.5 97t231.5 17.5h33v9q0 111 -46 157.5t-147 46.5q-49 0 -94 -15t-45 -54v-56h-242v111q0 68 42 115t111 67q119 33 230 33q451 0 451 -416v-389q0 -45 45 -45h82v-219h-234q-68 0 -100.5 31.5t-32.5 83.5l2 45h-4q-4 -8 -10 -20.5 t-32.5 -44.5t-59.5 -56.5t-90.5 -44t-122.5 -19.5q-147 0 -251.5 88t-104.5 243zM330 313q0 -55 41 -95t128.5 -40t156.5 87t69 188v24h-45q-350 0 -350 -164zM455 1174l155 278h250l-215 -278h-190z" />
<glyph unicode="&#xe2;" horiz-adv-x="1146" d="M68 306q0 155 127 234.5t261.5 97t231.5 17.5h33v9q0 111 -46 157.5t-147 46.5q-49 0 -94 -15t-45 -54v-56h-242v111q0 68 42 115t111 67q119 33 230 33q451 0 451 -416v-389q0 -45 45 -45h82v-219h-234q-68 0 -100.5 31.5t-32.5 83.5l2 45h-4q-4 -8 -10 -20.5 t-32.5 -44.5t-59.5 -56.5t-90.5 -44t-122.5 -19.5q-147 0 -251.5 88t-104.5 243zM258 1174l186 278h224l188 -278h-194l-103 165h-4l-104 -165h-193zM330 313q0 -55 41 -95t128.5 -40t156.5 87t69 188v24h-45q-350 0 -350 -164z" />
<glyph unicode="&#xe3;" horiz-adv-x="1146" d="M68 306q0 155 127 234.5t261.5 97t231.5 17.5h33v9q0 111 -46 157.5t-147 46.5q-49 0 -94 -15t-45 -54v-56h-242v111q0 68 42 115t111 67q119 33 230 33q451 0 451 -416v-389q0 -45 45 -45h82v-219h-234q-68 0 -100.5 31.5t-32.5 83.5l2 45h-4q-4 -8 -10 -20.5 t-32.5 -44.5t-59.5 -56.5t-90.5 -44t-122.5 -19.5q-147 0 -251.5 88t-104.5 243zM184 1176q0 281 234 280q59 0 107 -33.5t84 -66.5t74 -33t59.5 37t21.5 90h162q0 -281 -234 -281q-61 0 -108 34t-83 67t-74 33t-59.5 -36t-21.5 -91h-162zM330 313q0 -55 41 -95t128.5 -40 t156.5 87t69 188v24h-45q-350 0 -350 -164z" />
<glyph unicode="&#xe4;" horiz-adv-x="1146" d="M68 306q0 155 127 234.5t261.5 97t231.5 17.5h33v9q0 111 -46 157.5t-147 46.5q-49 0 -94 -15t-45 -54v-56h-242v111q0 68 42 115t111 67q119 33 230 33q451 0 451 -416v-389q0 -45 45 -45h82v-219h-234q-68 0 -100.5 31.5t-32.5 83.5l2 45h-4q-4 -8 -10 -20.5 t-32.5 -44.5t-59.5 -56.5t-90.5 -44t-122.5 -19.5q-147 0 -251.5 88t-104.5 243zM283 1214v238h180v-238h-180zM330 313q0 -55 41 -95t128.5 -40t156.5 87t69 188v24h-45q-350 0 -350 -164zM649 1214v238h182v-238h-182z" />
<glyph unicode="&#xe5;" horiz-adv-x="1146" d="M68 306q0 155 127 234.5t261.5 97t231.5 17.5h33v9q0 111 -46 157.5t-147 46.5q-49 0 -94 -15t-45 -54v-56h-242v111q0 68 42 115t111 67q119 33 230 33q451 0 451 -416v-389q0 -45 45 -45h82v-219h-234q-68 0 -100.5 31.5t-32.5 83.5l2 45h-4q-4 -8 -10 -20.5 t-32.5 -44.5t-59.5 -56.5t-90.5 -44t-122.5 -19.5q-147 0 -251.5 88t-104.5 243zM330 313q0 -55 41 -95t128.5 -40t156.5 87t69 188v24h-45q-350 0 -350 -164zM373 1310q0 75 54 117.5t128 42.5t128 -43t54 -117.5t-54 -117.5t-128 -43t-128 43t-54 118zM483 1309.5 q0 -31.5 20.5 -51t51.5 -19.5t51.5 19.5t20.5 51.5t-20.5 51t-51.5 19t-51.5 -19.5t-20.5 -51z" />
<glyph unicode="&#xe6;" horiz-adv-x="1773" d="M70 301q0 113 65.5 189.5t174.5 108.5q183 54 378 54h35v15q0 109 -48 154.5t-147 45.5q-139 0 -139 -69v-56h-242v111q0 80 64.5 131t144.5 67.5t174 16.5q252 0 349 -154h4q125 154 346 154t341 -145.5t120 -366.5l-4 -84h-715q16 -135 100 -205.5t207 -70.5 q74 0 147.5 29.5t110.5 58.5l35 28l108 -180q-97 -97 -275 -141q-71 -17 -144 -17q-299 0 -439 230h-4q-23 -57 -86 -115q-124 -113 -289.5 -113t-268.5 88.5t-103 235.5zM332 313q0 -57 41 -96t130 -39t156.5 87t67.5 190v18h-74q-321 0 -321 -160zM981 653h444 q-2 94 -59 153.5t-146 59.5t-154 -57.5t-85 -155.5z" />
<glyph unicode="&#xe7;" horiz-adv-x="1101" d="M66 535q0 216 155.5 375t415.5 159q192 0 309 -95q70 -56 70 -140v-123h-230v57q0 39 -47 60.5t-102 21.5q-135 0 -222 -92t-87 -239t95 -231.5t230 -84.5q80 0 157 35.5t116 70.5l37 35l108 -180q-16 -22 -64.5 -59t-94.5 -62q-118 -64 -273 -68l-14 -65 q66 -8 106.5 -47t40.5 -121t-63.5 -125t-155.5 -43q-66 0 -111 12l-16 2v144q43 -16 90 -17q88 0 88 56.5t-98 56.5l-43 -4l45 164q-203 37 -322.5 184t-119.5 363z" />
<glyph unicode="&#xe8;" horiz-adv-x="1140" d="M66 528.5q0 235.5 147 388t373.5 152.5t349.5 -140.5t123 -355.5l-6 -96h-721q14 -133 102 -206.5t211 -73.5q74 0 147.5 29.5t108.5 58.5l37 28l109 -180q-96 -96 -276 -141q-71 -17 -144 -17q-252 0 -406.5 159t-154.5 394.5zM276 1452h250l156 -278h-193zM340 657h453 q-2 92 -58.5 151.5t-147.5 59.5t-157.5 -56.5t-89.5 -154.5z" />
<glyph unicode="&#xe9;" horiz-adv-x="1140" d="M66 528.5q0 235.5 147 388t373.5 152.5t349.5 -140.5t123 -355.5l-6 -96h-721q14 -133 102 -206.5t211 -73.5q74 0 147.5 29.5t108.5 58.5l37 28l109 -180q-96 -96 -276 -141q-71 -17 -144 -17q-252 0 -406.5 159t-154.5 394.5zM340 657h453q-2 92 -58.5 151.5 t-147.5 59.5t-157.5 -56.5t-89.5 -154.5zM489 1174l156 278h250l-215 -278h-191z" />
<glyph unicode="&#xea;" horiz-adv-x="1140" d="M66 528.5q0 235.5 147 388t373.5 152.5t349.5 -140.5t123 -355.5l-6 -96h-721q14 -133 102 -206.5t211 -73.5q74 0 147.5 29.5t108.5 58.5l37 28l109 -180q-96 -96 -276 -141q-71 -17 -144 -17q-252 0 -406.5 159t-154.5 394.5zM291 1174l186 278h223l189 -278h-195 l-102 165h-4l-105 -165h-192zM340 657h453q-2 92 -58.5 151.5t-147.5 59.5t-157.5 -56.5t-89.5 -154.5z" />
<glyph unicode="&#xeb;" horiz-adv-x="1140" d="M66 528.5q0 235.5 147 388t373.5 152.5t349.5 -140.5t123 -355.5l-6 -96h-721q14 -133 102 -206.5t211 -73.5q74 0 147.5 29.5t108.5 58.5l37 28l109 -180q-96 -96 -276 -141q-71 -17 -144 -17q-252 0 -406.5 159t-154.5 394.5zM315 1214v238h181v-238h-181zM340 657h453 q-2 92 -58.5 151.5t-147.5 59.5t-157.5 -56.5t-89.5 -154.5zM682 1214v238h182v-238h-182z" />
<glyph unicode="&#xec;" horiz-adv-x="618" d="M-18 1454h247l156 -280h-190zM53 823v221h248q139 0 139 -139v-641q0 -45 45 -45h80v-219h-246q-74 0 -106.5 32.5t-32.5 106.5v639q0 45 -45 45h-82z" />
<glyph unicode="&#xed;" horiz-adv-x="618" d="M53 823v221h248q139 0 139 -139v-641q0 -45 45 -45h80v-219h-246q-74 0 -106.5 32.5t-32.5 106.5v639q0 45 -45 45h-82zM195 1174l155 280h248l-213 -280h-190z" />
<glyph unicode="&#xee;" horiz-adv-x="618" d="M-6 1174l188 280h224l188 -280h-197l-102 167h-4l-103 -167h-194zM53 823v221h248q139 0 139 -139v-641q0 -45 45 -45h80v-219h-246q-74 0 -106.5 32.5t-32.5 106.5v639q0 45 -45 45h-82z" />
<glyph unicode="&#xef;" horiz-adv-x="618" d="M41 1214v240h180v-240h-180zM53 823v221h248q139 0 139 -139v-641q0 -45 45 -45h80v-219h-246q-74 0 -106.5 32.5t-32.5 106.5v639q0 45 -45 45h-82zM356 1214v240h183v-240h-183z" />
<glyph unicode="&#xf0;" horiz-adv-x="1198" d="M78 478q0 200 130 337t351 137q57 0 109.5 -15t76.5 -30l23 -14h4q-59 131 -192 217l-379 -164l-13 154l228 100q-100 49 -236 82l72 205q258 -57 442 -170l303 129l13 -152l-181 -80q281 -246 281 -645q0 -294 -178 -465q-132 -129 -357.5 -129t-361 151.5t-135.5 351.5 zM340 476q0 -114 63.5 -197.5t187.5 -83.5t190.5 98t66.5 213.5t-65.5 179.5t-184.5 64t-188.5 -80t-69.5 -194z" />
<glyph unicode="&#xf1;" horiz-adv-x="1316" d="M43 823v221h240q137 0 137 -116v-31l-4 -45h4q43 86 135 151.5t233 65.5q365 0 365 -397v-408q0 -45 45 -45h82v-219h-248q-74 0 -106.5 33t-32.5 106v479q0 104 -36 158.5t-133 54.5t-172 -58t-103 -155q-20 -61 -21 -139v-479h-258v778q0 45 -45 45h-82zM301 1176 q0 281 234 280q59 0 107 -33.5t84 -66.5t74 -33t59.5 37t21.5 90h161q0 -281 -233 -281q-59 0 -107.5 34t-84 67t-73.5 33t-59.5 -36t-21.5 -91h-162z" />
<glyph unicode="&#xf2;" horiz-adv-x="1275" d="M66 522.5q0 237.5 164.5 392t406.5 154.5t407.5 -154.5t165.5 -392t-164.5 -392.5t-407.5 -155t-407.5 155t-164.5 392.5zM324 1452h249l156 -278h-192zM328 521q0 -142 90 -233t220 -91t220 91t90 233t-91 234.5t-220 92.5t-219 -92.5t-90 -234.5z" />
<glyph unicode="&#xf3;" horiz-adv-x="1275" d="M66 522.5q0 237.5 164.5 392t406.5 154.5t407.5 -154.5t165.5 -392t-164.5 -392.5t-407.5 -155t-407.5 155t-164.5 392.5zM328 521q0 -142 90 -233t220 -91t220 91t90 233t-91 234.5t-220 92.5t-219 -92.5t-90 -234.5zM539 1174l155 278h250l-215 -278h-190z" />
<glyph unicode="&#xf4;" horiz-adv-x="1275" d="M66 522.5q0 237.5 164.5 392t406.5 154.5t407.5 -154.5t165.5 -392t-164.5 -392.5t-407.5 -155t-407.5 155t-164.5 392.5zM328 521q0 -142 90 -233t220 -91t220 91t90 233t-91 234.5t-220 92.5t-219 -92.5t-90 -234.5zM340 1174l186 278h224l188 -278h-195l-102 165h-4 l-105 -165h-192z" />
<glyph unicode="&#xf5;" horiz-adv-x="1275" d="M66 522.5q0 237.5 164.5 392t406.5 154.5t407.5 -154.5t165.5 -392t-164.5 -392.5t-407.5 -155t-407.5 155t-164.5 392.5zM266 1176q0 281 234 280q59 0 107 -33.5t84 -66.5t74 -33t59.5 37t21.5 90h162q0 -281 -234 -281q-59 0 -107.5 34t-84 67t-73.5 33t-59.5 -36 t-21.5 -91h-162zM328 521q0 -142 90 -233t220 -91t220 91t90 233t-91 234.5t-220 92.5t-219 -92.5t-90 -234.5z" />
<glyph unicode="&#xf6;" horiz-adv-x="1275" d="M66 522.5q0 237.5 164.5 392t406.5 154.5t407.5 -154.5t165.5 -392t-164.5 -392.5t-407.5 -155t-407.5 155t-164.5 392.5zM328 521q0 -142 90 -233t220 -91t220 91t90 233t-91 234.5t-220 92.5t-219 -92.5t-90 -234.5zM365 1214v238h180v-238h-180zM731 1214v238h182 v-238h-182z" />
<glyph unicode="&#xf7;" d="M94 483v203h1067v-203h-1067zM510 55v221h233v-221h-233zM510 895v221h233v-221h-233z" />
<glyph unicode="&#xf8;" horiz-adv-x="1275" d="M65.5 510q0.5 250 165 404.5t406.5 154.5q147 0 274 -65l84 116l113 -78l-82 -112q184 -162 184 -404t-164.5 -396.5t-408.5 -154.5q-141 0 -256 56l-84 -119l-113 80l78 108q-197 160 -196.5 410zM328 528.5q0 -135.5 80 -227.5l366 514q-66 33 -137 33q-129 0 -219 -92 t-90 -227.5zM518 221q55 -25 119 -24q131 0 221 91t90 222t-69 213z" />
<glyph unicode="&#xf9;" horiz-adv-x="1306" d="M39 823v221h248q72 0 104.5 -32.5t32.5 -104.5v-481q0 -104 36 -158.5t126 -54.5q135 0 214 102.5t79 249.5v479h260v-780q0 -45 45 -45h82v-219h-240q-137 0 -137 117v28l2 48h-4q-41 -90 -137.5 -154t-223.5 -64q-360 1 -360 398v405q0 45 -45 45h-82zM328 1452h250 l155 -278h-192z" />
<glyph unicode="&#xfa;" horiz-adv-x="1306" d="M39 823v221h248q72 0 104.5 -32.5t32.5 -104.5v-481q0 -104 36 -158.5t126 -54.5q135 0 214 102.5t79 249.5v479h260v-780q0 -45 45 -45h82v-219h-240q-137 0 -137 117v28l2 48h-4q-41 -90 -137.5 -154t-223.5 -64q-360 1 -360 398v405q0 45 -45 45h-82zM541 1174 l155 278h250l-215 -278h-190z" />
<glyph unicode="&#xfb;" horiz-adv-x="1306" d="M39 823v221h248q72 0 104.5 -32.5t32.5 -104.5v-481q0 -104 36 -158.5t126 -54.5q135 0 214 102.5t79 249.5v479h260v-780q0 -45 45 -45h82v-219h-240q-137 0 -137 117v28l2 48h-4q-41 -90 -137.5 -154t-223.5 -64q-360 1 -360 398v405q0 45 -45 45h-82zM342 1174 l186 278h224l188 -278h-195l-102 165h-4l-104 -165h-193z" />
<glyph unicode="&#xfc;" horiz-adv-x="1306" d="M39 823v221h248q72 0 104.5 -32.5t32.5 -104.5v-481q0 -104 36 -158.5t126 -54.5q135 0 214 102.5t79 249.5v479h260v-780q0 -45 45 -45h82v-219h-240q-137 0 -137 117v28l2 48h-4q-41 -90 -137.5 -154t-223.5 -64q-360 1 -360 398v405q0 45 -45 45h-82zM369 1214v238 h180v-238h-180zM735 1214v238h183v-238h-183z" />
<glyph unicode="&#xfd;" horiz-adv-x="1132" d="M2 -324l100 185q63 -72 150 -72q117 0 172 133l35 80l-348 784q-14 37 -56 37h-30v221h172q55 0 85.5 -22.5t51.5 -75.5l205 -522l36 -139h5q16 86 34 139l179 522q33 98 139 98h176v-221h-31q-45 0 -59 -37l-375 -944q-53 -135 -153.5 -203.5t-223.5 -68.5 q-74 0 -139.5 26.5t-93.5 53.5zM471 1174l156 278h250l-215 -278h-191z" />
<glyph unicode="&#xfe;" horiz-adv-x="1265" d="M37 1233v221h248q74 0 106.5 -34t32.5 -105v-297l-4 -90h4q98 141 308 141t339 -153.5t129 -392.5t-129 -393.5t-342 -154.5q-100 0 -176 35t-102 70l-27 35h-4q4 -37 4 -90v-435h-260v1598q0 45 -45 45h-82zM416 522q0 -170 74.5 -247.5t190.5 -77.5t186.5 92t70.5 234 t-70.5 233.5t-187.5 91.5t-190.5 -78t-73.5 -248z" />
<glyph unicode="&#xff;" horiz-adv-x="1132" d="M2 -324l100 185q63 -72 150 -72q117 0 172 133l35 80l-348 784q-14 37 -56 37h-30v221h172q55 0 85.5 -22.5t51.5 -75.5l205 -522l36 -139h5q16 86 34 139l179 522q33 98 139 98h176v-221h-31q-45 0 -59 -37l-375 -944q-53 -135 -153.5 -203.5t-223.5 -68.5 q-74 0 -139.5 26.5t-93.5 53.5zM297 1214v238h180v-238h-180zM664 1214v238h182v-238h-182z" />
<glyph unicode="&#x152;" horiz-adv-x="1945" d="M61 729q0 313 211 527t519 214q70 0 163 -8t133 -8h621q74 0 106.5 -34t32.5 -105v-221h-241v88q0 45 -45 45h-322v-381h465v-228h-465v-391h375q45 0 45 45v88h242v-221q0 -74 -32 -106.5t-102 -32.5h-680q-39 0 -133 -9t-163 -9q-307 0 -518.5 217t-211.5 530zM340 728 q0 -214 127 -355.5t324 -141.5q123 0 180 15v960q-72 16 -180 17q-197 0 -324 -140.5t-127 -354.5z" />
<glyph unicode="&#x153;" horiz-adv-x="2035" d="M66 520.5q0 241.5 164.5 395t404.5 153.5q283 0 440 -215h4q135 215 412 215q219 0 341 -140.5t122 -355.5l-6 -96h-721q18 -135 105 -207.5t208 -72.5q74 0 147.5 29.5t110.5 58.5l37 28l107 -180q-96 -96 -276 -141q-71 -17 -144 -17q-293 0 -437 222h-4 q-160 -221 -444 -222q-242 0 -406.5 152t-164.5 393.5zM328 520.5q0 -145.5 90 -234.5t220 -89t220 90t90 235.5t-91 235.5t-220 90t-219 -91t-90 -236.5zM1235 657h453q-4 94 -58.5 152.5t-146.5 58.5t-158.5 -56.5t-89.5 -154.5z" />
<glyph unicode="&#x178;" horiz-adv-x="1259" d="M20 1227v227h138q74 0 112.5 -20.5t77.5 -85.5l193 -320l88 -164h4q37 78 88 164l190 320q39 66 78 86t113 20h137v-227h-47q-33 0 -48.5 -9.5t-35.5 -39.5l-344 -543v-635h-268v635l-344 543q-20 31 -36 40t-48 9h-48zM358 1591v238h181v-238h-181zM725 1591v238h182 v-238h-182z" />
<glyph unicode="&#x2c6;" horiz-adv-x="1026" d="M215 1550l186 279h224l188 -279h-195l-102 166h-4l-104 -166h-193z" />
<glyph unicode="&#x2dc;" horiz-adv-x="1122" d="M197 1552q0 281 233 281q59 0 107.5 -34t84 -66.5t73.5 -32.5t59.5 37t21.5 90h162q0 -281 -233 -281q-59 0 -107.5 34t-84.5 66.5t-74 32.5t-59.5 -35.5t-21.5 -91.5h-161z" />
<glyph unicode="&#x2000;" horiz-adv-x="923" />
<glyph unicode="&#x2001;" horiz-adv-x="1847" />
<glyph unicode="&#x2002;" horiz-adv-x="923" />
<glyph unicode="&#x2003;" horiz-adv-x="1847" />
<glyph unicode="&#x2004;" horiz-adv-x="615" />
<glyph unicode="&#x2005;" horiz-adv-x="461" />
<glyph unicode="&#x2006;" horiz-adv-x="307" />
<glyph unicode="&#x2007;" horiz-adv-x="307" />
<glyph unicode="&#x2008;" horiz-adv-x="230" />
<glyph unicode="&#x2009;" horiz-adv-x="369" />
<glyph unicode="&#x200a;" horiz-adv-x="102" />
<glyph unicode="&#x2010;" horiz-adv-x="882" d="M133 471v227h617v-227h-617z" />
<glyph unicode="&#x2011;" horiz-adv-x="882" d="M133 471v227h617v-227h-617z" />
<glyph unicode="&#x2012;" horiz-adv-x="882" d="M133 471v227h617v-227h-617z" />
<glyph unicode="&#x2013;" horiz-adv-x="1357" d="M113 483v203h1132v-203h-1132z" />
<glyph unicode="&#x2014;" horiz-adv-x="1767" d="M113 483v203h1542v-203h-1542z" />
<glyph unicode="&#x2018;" horiz-adv-x="501" d="M86 1032l154 447h176l-97 -447h-233z" />
<glyph unicode="&#x2019;" horiz-adv-x="501" d="M86 1032l96 449h234l-154 -449h-176z" />
<glyph unicode="&#x201a;" horiz-adv-x="501" d="M86 -182l96 446h234l-154 -446h-176z" />
<glyph unicode="&#x201c;" horiz-adv-x="827" d="M86 1032l154 447h176l-97 -447h-233zM414 1032l151 447h176l-96 -447h-231z" />
<glyph unicode="&#x201d;" horiz-adv-x="827" d="M86 1032l96 449h234l-154 -449h-176zM414 1032l96 449h231l-151 -449h-176z" />
<glyph unicode="&#x201e;" horiz-adv-x="827" d="M86 -182l96 446h234l-154 -446h-176zM414 -182l96 446h231l-151 -446h-176z" />
<glyph unicode="&#x2022;" horiz-adv-x="960" d="M137 596q0 141 100.5 241.5t242.5 100.5t241.5 -100.5t99.5 -241.5t-99.5 -241.5t-241.5 -100.5t-242.5 100.5t-100.5 241.5z" />
<glyph unicode="&#x2026;" horiz-adv-x="2033" d="M309 0v260h250v-260h-250zM891 0v260h252v-260h-252zM1475 0v260h251v-260h-251z" />
<glyph unicode="&#x202f;" horiz-adv-x="369" />
<glyph unicode="&#x2039;" horiz-adv-x="802" d="M94 578l336 421h248l-336 -421l336 -420h-248z" />
<glyph unicode="&#x203a;" horiz-adv-x="802" d="M119 158l336 420l-336 421h248l335 -421l-335 -420h-248z" />
<glyph unicode="&#x205f;" horiz-adv-x="461" />
<glyph unicode="&#x20ac;" horiz-adv-x="1253" d="M78 512v156h127q-4 35 -4 61l4 66h-127v157h153q68 233 259.5 380t441.5 147q105 0 176 -21l27 -6l-64 -240q-70 20 -145 21q-145 0 -254 -75t-158 -206h510l-33 -157h-514q-4 -31 -4 -62l6 -65h488l-31 -156h-410q47 -131 158 -209t252 -78q92 0 170 25l27 6l47 -242 q-106 -39 -248 -39q-260 0 -448.5 147.5t-252.5 389.5h-153z" />
<glyph unicode="&#x2122;" horiz-adv-x="2029" d="M70 1206v156q0 53 20.5 72.5t77.5 19.5h606q55 0 75.5 -19.5t20.5 -72.5v-156h-163v60q0 16 -15 16h-123v-735h-196v735h-119q-16 0 -16 -16v-60h-168zM874 547v170h46q18 0 20 18l57 719h183l186 -428l29 -86h4q12 51 26 86l189 428h180l57 -719q4 -18 21 -18h47v-170 h-154q-57 0 -78.5 17.5t-25.5 74.5l-27 375l2 63h-4l-159 -364h-154l-160 364h-4l2 -63l-27 -375q-4 -57 -24.5 -74.5t-77.5 -17.5h-154z" />
<glyph unicode="&#xe000;" horiz-adv-x="1044" d="M0 0v1044h1044v-1044h-1044z" />
</font>
</defs>
</svg>
